osu file format v14

[General]
AudioFilename: DJ YOSHITAKA - VALLIS-NERIA [EXH].mp3
AudioLeadIn: 1500
PreviewTime: 21397
Countdown: 0
SampleSet: Soft
StackLeniency: 0.7
Mode: 3
LetterboxInBreaks: 0
WidescreenStoryboard: 1

[Editor]
DistanceSpacing: 0.9
BeatDivisor: 4
GridSize: 8
TimelineZoom: 1

[Metadata]
Title:VALLIS-NERIA
TitleUnicode:VALLIS-NERIA
Artist:DJ YOSHITAKA
ArtistUnicode:DJ YOSHITAKA
Creator:Spy
Version:KK's ADVANCED Lv.8
Source:SOUND VOLTEX II -infinite infection-
Tags:SDVX jubeat saucer REFLEC BEAT limelight beatmania IIDX KONAMI BEMANI Simple_Star Kuo Kyoka LeiN- Lisa-RICCIA JOMANDA
BeatmapID:319111
BeatmapSetID:124866

[Difficulty]
HPDrainRate:7
CircleSize:4
OverallDifficulty:7
ApproachRate:5
SliderMultiplier:1.4
SliderTickRate:1

[Events]
//Background and Video events
0,0,"BG.jpg",0,0
//Break Periods
//Storyboard Layer 0 (Background)
//Storyboard Layer 1 (Fail)
//Storyboard Layer 2 (Pass)
//Storyboard Layer 3 (Foreground)
//Storyboard Sound Samples
//Background Colour Transformations
3,100,163,162,255

[TimingPoints]
641,324.324324324324,4,2,1,60,1,0
21073,-200,4,2,1,60,0,0
21235,-100,4,2,1,60,0,0
21397,-100,4,2,1,60,0,1
57722,-100,4,2,1,60,0,0
88857,-100,4,2,1,60,0,1
125181,-100,4,2,1,60,0,0

[HitObjects]
64,192,641,1,0,0:0:0:0:
448,192,641,1,0,0:0:0:0:
192,192,641,128,0,1938:0:0:0:0:
320,192,1289,1,2,0:0:0:0:
448,192,1289,1,0,0:0:0:0:
320,192,1938,1,0,0:0:0:0:
64,192,1938,128,0,3235:0:0:0:0:
192,192,2586,1,2,0:0:0:0:
448,192,2749,1,0,0:0:0:0:
320,192,2911,1,0,0:0:0:0:
192,192,3073,1,0,0:0:0:0:
448,192,3235,1,0,0:0:0:0:
320,192,3235,128,0,4532:0:0:0:0:
192,192,3559,1,0,0:0:0:0:
64,192,3884,1,2,0:0:0:0:
448,192,4046,1,0,0:0:0:0:
192,192,4370,1,0,0:0:0:0:
64,192,4532,128,0,5830:0:0:0:0:
448,192,4532,1,0,0:0:0:0:
192,192,4695,1,0,0:0:0:0:
320,192,5019,1,0,0:0:0:0:
448,192,5181,1,2,0:0:0:0:
192,192,5343,1,0,0:0:0:0:
448,192,5668,1,0,0:0:0:0:
320,192,5830,1,0,0:0:0:0:
192,192,5830,128,0,7127:0:0:0:0:
448,192,6154,1,0,0:0:0:0:
64,192,6478,1,2,0:0:0:0:
448,192,6640,1,0,0:0:0:0:
320,192,6803,1,0,0:0:0:0:
64,192,6965,1,0,0:0:0:0:
448,192,7127,1,0,0:0:0:0:
320,192,7127,128,0,8424:0:0:0:0:
64,192,7289,1,0,0:0:0:0:
448,192,7613,1,0,0:0:0:0:
64,192,7776,1,2,0:0:0:0:
192,192,7938,1,0,0:0:0:0:
448,192,8262,1,0,0:0:0:0:
64,192,8424,128,0,10370:0:0:0:0:
192,192,8424,1,0,0:0:0:0:
448,192,8749,128,0,10370:0:0:0:0:
192,192,8749,1,0,0:0:0:0:
320,192,10370,1,0,0:0:0:0:
192,192,10370,128,0,11019:0:0:0:0:
320,192,11019,128,0,12316:0:0:0:0:
448,192,11019,1,2,0:0:0:0:
448,192,11668,1,0,0:0:0:0:
64,192,11668,1,0,0:0:0:0:
448,192,12154,1,0,0:0:0:0:
64,192,12316,1,0,0:0:0:0:
448,192,12478,1,0,0:0:0:0:
192,192,12803,1,0,0:0:0:0:
320,192,13127,1,0,0:0:0:0:
64,192,13289,1,0,0:0:0:0:
448,192,13289,1,2,0:0:0:0:
192,192,13613,1,0,0:0:0:0:
320,192,13613,1,2,0:0:0:0:
64,192,13938,1,2,0:0:0:0:
192,192,13938,1,0,0:0:0:0:
448,192,13938,128,0,16208:0:0:0:0:
64,192,14749,1,0,0:0:0:0:
192,192,15073,1,0,0:0:0:0:
320,192,15397,1,0,0:0:0:0:
64,192,15559,1,2,0:0:0:0:
192,192,15559,1,0,0:0:0:0:
192,192,15884,1,2,0:0:0:0:
320,192,15884,1,0,0:0:0:0:
320,192,16208,1,2,0:0:0:0:
64,192,16208,128,0,17505:0:0:0:0:
192,192,16532,1,0,0:0:0:0:
448,192,16857,1,0,0:0:0:0:
192,192,17181,1,0,0:0:0:0:
320,192,17343,1,0,0:0:0:0:
192,192,17505,128,0,18803:0:0:0:0:
448,192,17505,1,0,0:0:0:0:
320,192,17668,1,0,0:0:0:0:
64,192,17830,1,0,0:0:0:0:
448,192,18154,1,0,0:0:0:0:
320,192,18478,1,0,0:0:0:0:
64,192,18640,1,0,0:0:0:0:
320,192,18803,128,0,20100:0:0:0:0:
448,192,18803,1,0,0:0:0:0:
64,192,18965,1,0,0:0:0:0:
192,192,19127,1,0,0:0:0:0:
448,192,19289,1,0,0:0:0:0:
64,192,19451,1,0,0:0:0:0:
448,192,19613,1,0,0:0:0:0:
192,192,19776,1,0,0:0:0:0:
448,192,19938,1,0,0:0:0:0:
64,192,20100,1,2,0:0:0:0:
192,192,20262,1,2,0:0:0:0:
448,192,20424,1,2,0:0:0:0:
64,192,20586,1,2,0:0:0:0:
320,192,20749,1,2,0:0:0:0:
448,192,20911,1,2,0:0:0:0:
64,192,21073,128,0,21397:0:0:0:0:
192,192,21073,128,0,21397:0:0:0:0:
320,192,21397,1,0,0:0:0:0:
448,192,21559,1,0,0:0:0:0:
64,192,21722,1,8,0:0:0:0:
320,192,21884,1,0,0:0:0:0:
192,192,22046,1,0,0:0:0:0:
448,192,22208,1,0,0:0:0:0:
64,192,22370,1,8,0:0:0:0:
192,192,22532,1,2,0:0:0:0:
448,192,22532,1,0,0:0:0:0:
448,192,22857,1,0,0:0:0:0:
320,192,22857,1,2,0:0:0:0:
64,192,23181,1,0,0:0:0:0:
192,192,23181,1,2,0:0:0:0:
320,192,23343,1,2,0:0:0:0:
448,192,23343,1,0,0:0:0:0:
64,192,23505,1,2,0:0:0:0:
320,192,23668,128,0,23992:0:0:0:0:
448,192,23668,1,0,0:0:0:0:
64,192,23992,1,0,0:0:0:0:
192,192,24316,1,8,0:0:0:0:
448,192,24478,1,0,0:0:0:0:
64,192,24640,1,0,0:0:0:0:
192,192,24803,1,0,0:0:0:0:
320,192,24965,1,8,0:0:0:0:
192,192,25127,1,0,0:0:0:0:
448,192,25127,128,0,26424:0:0:0:0:
64,192,25451,1,0,0:0:0:0:
320,192,25776,1,0,0:0:0:0:
64,192,26100,1,0,0:0:0:0:
192,192,26424,1,0,0:0:0:0:
64,192,26586,1,0,0:0:0:0:
320,192,26749,1,0,0:0:0:0:
64,192,26911,1,8,0:0:0:0:
448,192,27073,1,0,0:0:0:0:
192,192,27235,1,0,0:0:0:0:
448,192,27397,1,0,0:0:0:0:
192,192,27559,1,0,0:0:0:0:
320,192,27559,1,8,0:0:0:0:
64,192,27722,1,0,0:0:0:0:
448,192,27722,1,0,0:0:0:0:
192,192,28046,128,0,28208:0:0:0:0:
64,192,28046,1,0,0:0:0:0:
320,192,28208,1,8,0:0:0:0:
448,192,28370,128,0,28532:0:0:0:0:
64,192,28370,1,0,0:0:0:0:
320,192,28532,1,0,0:0:0:0:
192,192,28532,128,0,28695:0:0:0:0:
448,192,28695,1,0,0:0:0:0:
320,192,28857,1,8,0:0:0:0:
64,192,29019,1,0,0:0:0:0:
192,192,29181,1,0,0:0:0:0:
320,192,29343,1,0,0:0:0:0:
192,192,29505,128,0,30478:0:0:0:0:
64,192,29505,1,8,0:0:0:0:
320,192,29992,1,0,0:0:0:0:
64,192,30154,1,8,0:0:0:0:
320,192,30316,1,0,0:0:0:0:
448,192,30478,1,2,0:0:0:0:
64,192,30640,1,0,0:0:0:0:
320,192,30803,1,8,0:0:0:0:
448,192,30803,128,0,31776:0:0:0:0:
192,192,30965,1,0,0:0:0:0:
64,192,31127,1,0,0:0:0:0:
320,192,31289,1,0,0:0:0:0:
192,192,31451,1,8,0:0:0:0:
320,192,31613,1,0,0:0:0:0:
64,192,31776,1,0,0:0:0:0:
192,192,31938,1,0,0:0:0:0:
448,192,32100,1,8,0:0:0:0:
64,192,32262,1,0,0:0:0:0:
320,192,32424,1,0,0:0:0:0:
192,192,32586,1,0,0:0:0:0:
448,192,32749,1,8,0:0:0:0:
192,192,32911,1,0,0:0:0:0:
320,192,32911,1,0,0:0:0:0:
64,192,33235,1,0,0:0:0:0:
448,192,33397,1,8,0:0:0:0:
192,192,33559,1,0,0:0:0:0:
320,192,33722,1,0,0:0:0:0:
448,192,33722,1,0,0:0:0:0:
64,192,33884,1,0,0:0:0:0:
448,192,34046,1,8,0:0:0:0:
192,192,34208,1,0,0:0:0:0:
64,192,34208,1,0,0:0:0:0:
320,192,34370,128,0,34857:0:0:0:0:
448,192,34370,1,0,0:0:0:0:
192,192,34695,1,8,0:0:0:0:
64,192,34857,128,0,35019:0:0:0:0:
448,192,35019,128,0,35668:0:0:0:0:
320,192,35343,1,8,0:0:0:0:
192,192,35668,1,0,0:0:0:0:
64,192,35668,1,0,0:0:0:0:
320,192,35992,1,0,0:0:0:0:
192,192,35992,1,8,0:0:0:0:
64,192,36154,1,0,0:0:0:0:
448,192,36154,128,0,36478:0:0:0:0:
64,192,36478,1,0,0:0:0:0:
192,192,36640,1,8,0:0:0:0:
320,192,36640,1,0,0:0:0:0:
448,192,36965,1,2,0:0:0:0:
192,192,37127,1,2,0:0:0:0:
320,192,37451,128,0,37776:0:0:0:0:
64,192,37451,1,0,0:0:0:0:
448,192,37776,1,0,0:0:0:0:
192,192,37776,1,0,0:0:0:0:
192,192,38100,128,0,39235:0:0:0:0:
64,192,38100,1,0,0:0:0:0:
320,192,39235,1,0,0:0:0:0:
448,192,39559,1,0,0:0:0:0:
64,192,39559,1,2,0:0:0:0:
192,192,39722,1,2,0:0:0:0:
320,192,40046,1,0,0:0:0:0:
64,192,40046,128,0,40370:0:0:0:0:
448,192,40370,1,0,0:0:0:0:
192,192,40370,1,0,0:0:0:0:
320,192,40695,128,0,41830:0:0:0:0:
64,192,40695,1,0,0:0:0:0:
448,192,41830,1,8,0:0:0:0:
64,192,42154,1,0,0:0:0:0:
448,192,42316,1,0,0:0:0:0:
192,192,42478,1,8,0:0:0:0:
448,192,42640,1,0,0:0:0:0:
320,192,42803,1,0,0:0:0:0:
64,192,42965,1,0,0:0:0:0:
448,192,43127,1,8,0:0:0:0:
192,192,43289,1,0,0:0:0:0:
448,192,43451,1,0,0:0:0:0:
192,192,43613,1,0,0:0:0:0:
64,192,43776,1,8,0:0:0:0:
448,192,43776,128,0,44749:0:0:0:0:
320,192,43938,1,0,0:0:0:0:
192,192,44100,1,0,0:0:0:0:
64,192,44262,1,0,0:0:0:0:
192,192,44424,1,8,0:0:0:0:
320,192,44586,1,0,0:0:0:0:
192,192,44749,1,0,0:0:0:0:
64,192,44749,128,0,46046:0:0:0:0:
320,192,44911,1,0,0:0:0:0:
448,192,45073,1,8,0:0:0:0:
320,192,45235,1,0,0:0:0:0:
192,192,45397,1,0,0:0:0:0:
320,192,45559,1,0,0:0:0:0:
448,192,45722,1,8,0:0:0:0:
320,192,45884,1,0,0:0:0:0:
448,192,46046,1,0,0:0:0:0:
192,192,46046,1,0,0:0:0:0:
320,192,46208,1,0,0:0:0:0:
192,192,46370,1,8,0:0:0:0:
64,192,46532,1,0,0:0:0:0:
192,192,46695,1,0,0:0:0:0:
320,192,46857,1,0,0:0:0:0:
448,192,47019,1,8,0:0:0:0:
320,192,47181,1,0,0:0:0:0:
192,192,47343,1,0,0:0:0:0:
448,192,47343,1,2,0:0:0:0:
320,192,47505,1,2,0:0:0:0:
320,192,47830,128,0,48154:0:0:0:0:
192,192,47830,1,0,0:0:0:0:
64,192,48154,1,0,0:0:0:0:
448,192,48478,128,0,49613:0:0:0:0:
192,192,48478,1,0,0:0:0:0:
320,192,49613,1,0,0:0:0:0:
192,192,49938,1,0,0:0:0:0:
320,192,49938,1,2,0:0:0:0:
448,192,50100,1,2,0:0:0:0:
192,192,50424,128,0,50749:0:0:0:0:
320,192,50424,1,0,0:0:0:0:
64,192,50749,1,0,0:0:0:0:
320,192,51073,128,0,52208:0:0:0:0:
448,192,51073,1,0,0:0:0:0:
192,192,52208,1,0,0:0:0:0:
448,192,52532,1,0,0:0:0:0:
64,192,52695,1,0,0:0:0:0:
320,192,52857,1,8,0:0:0:0:
192,192,53019,1,0,0:0:0:0:
448,192,53181,1,0,0:0:0:0:
320,192,53343,1,0,0:0:0:0:
64,192,53505,1,8,0:0:0:0:
448,192,53668,1,0,0:0:0:0:
192,192,53830,1,0,0:0:0:0:
64,192,53992,1,0,0:0:0:0:
448,192,54154,1,8,0:0:0:0:
320,192,54316,1,0,0:0:0:0:
64,192,54478,1,0,0:0:0:0:
192,192,54640,1,0,0:0:0:0:
448,192,54803,1,8,0:0:0:0:
320,192,54965,1,0,0:0:0:0:
448,192,55127,1,0,0:0:0:0:
192,192,55127,1,0,0:0:0:0:
64,192,55127,128,0,55613:0:0:0:0:
320,192,55289,1,0,0:0:0:0:
192,192,55451,1,8,0:0:0:0:
448,192,55613,1,0,0:0:0:0:
192,192,55776,1,0,0:0:0:0:
320,192,55938,1,0,0:0:0:0:
192,192,56100,128,0,56424:0:0:0:0:
64,192,56100,1,8,0:0:0:0:
448,192,56424,1,0,0:0:0:0:
64,192,56668,5,0,0:0:0:0:
192,192,56749,1,8,0:0:0:0:
448,192,56911,1,0,0:0:0:0:
192,192,57073,1,0,0:0:0:0:
320,192,57073,128,0,57722:0:0:0:0:
448,192,57397,1,8,0:0:0:0:
64,192,57722,5,0,0:0:0:0:
192,192,57722,1,0,0:0:0:0:
320,192,58046,1,8,0:0:0:0:
448,192,58046,1,0,0:0:0:0:
64,192,58370,1,0,0:0:0:0:
320,192,58370,1,0,0:0:0:0:
192,192,58695,1,8,0:0:0:0:
448,192,58695,1,0,0:0:0:0:
320,192,59019,1,0,0:0:0:0:
192,192,59019,1,0,0:0:0:0:
64,192,59343,1,0,0:0:0:0:
448,192,59343,1,8,0:0:0:0:
192,192,59668,1,0,0:0:0:0:
448,192,59668,1,0,0:0:0:0:
320,192,59992,1,8,0:0:0:0:
64,192,59992,1,0,0:0:0:0:
192,192,60316,1,0,0:0:0:0:
320,192,60316,1,0,0:0:0:0:
448,192,60640,1,8,0:0:0:0:
64,192,60640,1,0,0:0:0:0:
192,192,60965,1,0,0:0:0:0:
448,192,60965,1,0,0:0:0:0:
64,192,61289,1,0,0:0:0:0:
320,192,61289,1,8,0:0:0:0:
192,192,61613,1,0,0:0:0:0:
320,192,61613,1,0,0:0:0:0:
448,192,61938,1,0,0:0:0:0:
320,192,61938,1,8,0:0:0:0:
64,192,62262,1,0,0:0:0:0:
320,192,62262,1,0,0:0:0:0:
192,192,62586,1,8,0:0:0:0:
448,192,62586,1,0,0:0:0:0:
320,192,62911,1,0,0:0:0:0:
192,192,62911,1,0,0:0:0:0:
448,192,63235,1,0,0:0:0:0:
64,192,63235,1,8,0:0:0:0:
192,192,63559,1,0,0:0:0:0:
320,192,63559,1,0,0:0:0:0:
448,192,63884,1,0,0:0:0:0:
320,192,63884,1,8,0:0:0:0:
64,192,64208,1,0,0:0:0:0:
192,192,64208,1,0,0:0:0:0:
448,192,64532,1,0,0:0:0:0:
192,192,64532,1,8,0:0:0:0:
320,192,64857,1,0,0:0:0:0:
192,192,64857,1,0,0:0:0:0:
448,192,65181,1,0,0:0:0:0:
64,192,65181,1,8,0:0:0:0:
192,192,65505,1,0,0:0:0:0:
448,192,65505,1,0,0:0:0:0:
320,192,65830,1,8,0:0:0:0:
192,192,65830,1,0,0:0:0:0:
448,192,66154,1,0,0:0:0:0:
64,192,66154,1,0,0:0:0:0:
192,192,66478,1,0,0:0:0:0:
64,192,66478,1,8,0:0:0:0:
320,192,66803,1,0,0:0:0:0:
448,192,66803,1,0,0:0:0:0:
64,192,67127,1,0,0:0:0:0:
320,192,67127,1,8,0:0:0:0:
192,192,67451,1,0,0:0:0:0:
448,192,67451,1,0,0:0:0:0:
320,192,67776,1,8,0:0:0:0:
64,192,67776,1,0,0:0:0:0:
448,192,68100,1,0,0:0:0:0:
192,192,68100,1,0,0:0:0:0:
64,192,68424,1,0,0:0:0:0:
448,192,68424,128,0,69397:0:0:0:0:
320,192,68424,1,8,0:0:0:0:
192,192,68749,1,0,0:0:0:0:
320,192,68749,1,0,0:0:0:0:
320,192,69073,1,0,0:0:0:0:
64,192,69073,1,8,0:0:0:0:
192,192,69397,1,0,0:0:0:0:
64,192,69397,1,0,0:0:0:0:
192,192,69722,1,8,0:0:0:0:
448,192,69722,1,0,0:0:0:0:
64,192,70046,1,0,0:0:0:0:
320,192,70046,1,2,0:0:0:0:
448,192,70046,1,2,0:0:0:0:
192,192,70370,1,2,0:0:0:0:
320,192,70370,1,2,0:0:0:0:
448,192,70370,1,0,0:0:0:0:
448,192,70695,1,0,0:0:0:0:
64,192,70695,1,2,0:0:0:0:
192,192,70695,1,2,0:0:0:0:
320,192,71019,1,8,0:0:0:0:
448,192,71019,1,0,0:0:0:0:
64,192,71343,1,0,0:0:0:0:
320,192,71343,1,0,0:0:0:0:
448,192,71668,1,8,0:0:0:0:
192,192,71668,128,0,72640:0:0:0:0:
64,192,71668,1,0,0:0:0:0:
320,192,71992,1,0,0:0:0:0:
448,192,71992,1,0,0:0:0:0:
64,192,72316,1,0,0:0:0:0:
320,192,72316,1,8,0:0:0:0:
320,192,72640,1,2,0:0:0:0:
448,192,72640,1,2,0:0:0:0:
192,192,72965,1,2,0:0:0:0:
64,192,72965,1,0,0:0:0:0:
320,192,72965,1,2,0:0:0:0:
320,192,73289,1,2,0:0:0:0:
64,192,73289,1,0,0:0:0:0:
448,192,73289,1,2,0:0:0:0:
192,192,73613,1,8,0:0:0:0:
448,192,73613,1,0,0:0:0:0:
320,192,73938,1,0,0:0:0:0:
64,192,73938,1,0,0:0:0:0:
192,192,74262,1,0,0:0:0:0:
320,192,74262,1,8,0:0:0:0:
448,192,74586,128,0,75884:0:0:0:0:
64,192,74586,1,0,0:0:0:0:
320,192,74586,1,0,0:0:0:0:
192,192,74911,1,0,0:0:0:0:
320,192,74911,1,0,0:0:0:0:
64,192,75235,1,2,0:0:0:0:
320,192,75235,1,2,0:0:0:0:
192,192,75559,1,2,0:0:0:0:
320,192,75559,1,2,0:0:0:0:
192,192,75884,1,2,0:0:0:0:
64,192,75884,128,0,78478:0:0:0:0:
192,192,77181,128,0,78478:0:0:0:0:
448,192,77181,1,2,0:0:0:0:
448,192,78478,1,2,0:0:0:0:
320,192,78478,128,0,79776:0:0:0:0:
448,192,79776,1,0,0:0:0:0:
64,192,79776,128,0,81073:0:0:0:0:
448,192,81073,1,0,0:0:0:0:
192,192,81073,128,0,82370:0:0:0:0:
320,192,81722,1,0,0:0:0:0:
448,192,81884,1,0,0:0:0:0:
320,192,82208,1,0,0:0:0:0:
448,192,82370,128,0,83668:0:0:0:0:
320,192,82532,1,0,0:0:0:0:
192,192,82857,1,0,0:0:0:0:
64,192,83181,1,0,0:0:0:0:
192,192,83505,1,0,0:0:0:0:
320,192,83668,128,0,84965:0:0:0:0:
64,192,83830,1,0,0:0:0:0:
448,192,83992,1,0,0:0:0:0:
192,192,84154,1,0,0:0:0:0:
448,192,84316,1,0,0:0:0:0:
64,192,84478,1,0,0:0:0:0:
192,192,84640,1,0,0:0:0:0:
448,192,84803,1,0,0:0:0:0:
64,192,84965,1,0,0:0:0:0:
192,192,85127,1,0,0:0:0:0:
320,192,85289,1,0,0:0:0:0:
448,192,85289,1,0,0:0:0:0:
192,192,85451,1,0,0:0:0:0:
64,192,85613,1,0,0:0:0:0:
192,192,85776,1,0,0:0:0:0:
448,192,85938,1,0,0:0:0:0:
320,192,85938,1,0,0:0:0:0:
192,192,86100,1,0,0:0:0:0:
64,192,86262,128,0,87559:0:0:0:0:
320,192,86262,1,2,0:0:0:0:
192,192,87397,1,0,0:0:0:0:
448,192,87559,128,0,88857:0:0:0:0:
320,192,87559,1,0,0:0:0:0:
192,192,87722,1,0,0:0:0:0:
64,192,87884,1,0,0:0:0:0:
192,192,88046,1,0,0:0:0:0:
320,192,88208,1,0,0:0:0:0:
64,192,88208,128,0,88532:0:0:0:0:
192,192,88370,1,0,0:0:0:0:
320,192,88532,1,0,0:0:0:0:
192,192,88695,1,0,0:0:0:0:
320,192,88857,1,0,0:0:0:0:
448,192,89019,1,0,0:0:0:0:
320,192,89181,1,8,0:0:0:0:
64,192,89343,1,0,0:0:0:0:
192,192,89505,1,0,0:0:0:0:
448,192,89668,1,0,0:0:0:0:
320,192,89830,1,8,0:0:0:0:
192,192,89992,1,2,0:0:0:0:
448,192,89992,1,0,0:0:0:0:
320,192,90316,1,2,0:0:0:0:
192,192,90316,1,0,0:0:0:0:
64,192,90640,1,0,0:0:0:0:
192,192,90640,1,2,0:0:0:0:
448,192,90803,1,0,0:0:0:0:
320,192,90803,1,2,0:0:0:0:
64,192,90965,1,0,0:0:0:0:
192,192,90965,1,2,0:0:0:0:
320,192,91127,128,0,91451:0:0:0:0:
448,192,91127,1,8,0:0:0:0:
192,192,91451,1,0,0:0:0:0:
64,192,91776,1,8,0:0:0:0:
320,192,91938,1,0,0:0:0:0:
448,192,92262,1,0,0:0:0:0:
192,192,92262,1,0,0:0:0:0:
64,192,92424,1,8,0:0:0:0:
192,192,92586,128,0,92911:0:0:0:0:
448,192,92586,1,0,0:0:0:0:
448,192,92911,1,0,0:0:0:0:
320,192,92911,128,0,93235:0:0:0:0:
192,192,93235,128,0,93559:0:0:0:0:
64,192,93235,1,0,0:0:0:0:
448,192,93559,1,0,0:0:0:0:
64,192,93559,128,0,93884:0:0:0:0:
320,192,93884,1,0,0:0:0:0:
448,192,94046,1,0,0:0:0:0:
320,192,94208,1,0,0:0:0:0:
192,192,94370,1,8,0:0:0:0:
448,192,94695,1,0,0:0:0:0:
64,192,94857,1,0,0:0:0:0:
320,192,95019,1,0,0:0:0:0:
192,192,95019,1,8,0:0:0:0:
448,192,95181,1,0,0:0:0:0:
64,192,95181,1,0,0:0:0:0:
448,192,95505,1,0,0:0:0:0:
64,192,95505,128,0,95668:0:0:0:0:
320,192,95668,1,8,0:0:0:0:
448,192,95830,1,0,0:0:0:0:
192,192,95830,128,0,95992:0:0:0:0:
64,192,95992,128,0,96154:0:0:0:0:
320,192,95992,1,0,0:0:0:0:
192,192,96154,1,0,0:0:0:0:
448,192,96154,128,0,96478:0:0:0:0:
320,192,96316,1,8,0:0:0:0:
64,192,96478,1,0,0:0:0:0:
320,192,96803,1,0,0:0:0:0:
192,192,96965,128,0,97938:0:0:0:0:
64,192,96965,1,8,0:0:0:0:
320,192,97451,1,0,0:0:0:0:
448,192,97613,1,8,0:0:0:0:
64,192,97776,1,0,0:0:0:0:
448,192,97938,1,0,0:0:0:0:
320,192,98262,1,8,0:0:0:0:
64,192,98586,1,0,0:0:0:0:
448,192,98749,1,0,0:0:0:0:
192,192,98911,1,8,0:0:0:0:
448,192,99073,1,0,0:0:0:0:
320,192,99235,1,0,0:0:0:0:
64,192,99559,1,8,0:0:0:0:
192,192,99884,1,0,0:0:0:0:
448,192,100208,1,0,0:0:0:0:
64,192,100208,1,8,0:0:0:0:
320,192,100370,1,0,0:0:0:0:
192,192,100370,1,0,0:0:0:0:
448,192,100695,1,0,0:0:0:0:
192,192,100695,128,0,101019:0:0:0:0:
320,192,100857,1,8,0:0:0:0:
64,192,101019,1,0,0:0:0:0:
448,192,101181,1,0,0:0:0:0:
192,192,101343,1,0,0:0:0:0:
320,192,101505,1,8,0:0:0:0:
64,192,101668,1,0,0:0:0:0:
192,192,101830,128,0,102316:0:0:0:0:
448,192,101830,1,0,0:0:0:0:
448,192,102316,128,0,103127:0:0:0:0:
320,192,102316,1,0,0:0:0:0:
64,192,102478,1,0,0:0:0:0:
64,192,103127,1,0,0:0:0:0:
192,192,103289,1,0,0:0:0:0:
448,192,103451,1,8,0:0:0:0:
320,192,103613,1,0,0:0:0:0:
64,192,103776,1,0,0:0:0:0:
448,192,103938,1,0,0:0:0:0:
192,192,104100,128,0,104424:0:0:0:0:
64,192,104100,1,8,0:0:0:0:
448,192,104424,1,2,0:0:0:0:
320,192,104586,1,2,0:0:0:0:
448,192,104749,128,0,105559:0:0:0:0:
192,192,104749,1,0,0:0:0:0:
64,192,104911,1,0,0:0:0:0:
192,192,105235,1,0,0:0:0:0:
64,192,105559,128,0,106532:0:0:0:0:
320,192,105559,1,0,0:0:0:0:
320,192,106532,1,0,0:0:0:0:
320,192,107019,128,0,108316:0:0:0:0:
192,192,107019,1,2,0:0:0:0:
448,192,107181,1,2,0:0:0:0:
64,192,107343,1,0,0:0:0:0:
192,192,107505,1,0,0:0:0:0:
64,192,107830,1,0,0:0:0:0:
448,192,108154,1,0,0:0:0:0:
192,192,108316,128,0,109127:0:0:0:0:
64,192,108316,1,0,0:0:0:0:
320,192,109127,1,0,0:0:0:0:
64,192,109208,1,0,0:0:0:0:
320,192,109289,1,8,0:0:0:0:
448,192,109289,128,0,109613:0:0:0:0:
192,192,109613,1,0,0:0:0:0:
448,192,109776,1,0,0:0:0:0:
64,192,109938,1,8,0:0:0:0:
320,192,110100,1,0,0:0:0:0:
192,192,110262,1,0,0:0:0:0:
448,192,110424,1,0,0:0:0:0:
64,192,110586,1,8,0:0:0:0:
320,192,110749,1,0,0:0:0:0:
192,192,110911,1,0,0:0:0:0:
448,192,111073,1,0,0:0:0:0:
320,192,111235,1,8,0:0:0:0:
64,192,111397,1,0,0:0:0:0:
448,192,111559,1,0,0:0:0:0:
192,192,111722,1,0,0:0:0:0:
448,192,111884,1,8,0:0:0:0:
320,192,112046,1,0,0:0:0:0:
192,192,112208,1,0,0:0:0:0:
320,192,112370,1,0,0:0:0:0:
448,192,112532,1,8,0:0:0:0:
192,192,112695,1,0,0:0:0:0:
448,192,112857,1,0,0:0:0:0:
320,192,113019,1,0,0:0:0:0:
64,192,113181,1,8,0:0:0:0:
448,192,113343,1,0,0:0:0:0:
192,192,113505,1,0,0:0:0:0:
320,192,113505,128,0,113830:0:0:0:0:
64,192,113830,128,0,114154:0:0:0:0:
448,192,113830,1,8,0:0:0:0:
448,192,114154,128,0,114803:0:0:0:0:
320,192,114154,1,0,0:0:0:0:
192,192,114478,1,8,0:0:0:0:
192,192,114803,128,0,116100:0:0:0:0:
64,192,114803,1,2,0:0:0:0:
320,192,114965,1,2,0:0:0:0:
448,192,115127,1,0,0:0:0:0:
320,192,115289,1,2,0:0:0:0:
448,192,115613,1,0,0:0:0:0:
320,192,115613,1,0,0:0:0:0:
320,192,115938,1,0,0:0:0:0:
448,192,115938,1,0,0:0:0:0:
64,192,116100,128,0,117397:0:0:0:0:
320,192,117397,128,0,118695:0:0:0:0:
448,192,117397,1,2,0:0:0:0:
192,192,117559,1,2,0:0:0:0:
448,192,117722,1,0,0:0:0:0:
64,192,117884,1,0,0:0:0:0:
448,192,118208,1,0,0:0:0:0:
192,192,118208,1,0,0:0:0:0:
64,192,118532,1,0,0:0:0:0:
448,192,118532,1,0,0:0:0:0:
192,192,118695,128,0,119992:0:0:0:0:
64,192,119668,128,0,119992:0:0:0:0:
320,192,119668,1,8,0:0:0:0:
448,192,119992,1,0,0:0:0:0:
320,192,120154,1,0,0:0:0:0:
64,192,120316,1,8,0:0:0:0:
448,192,120478,1,0,0:0:0:0:
192,192,120640,1,0,0:0:0:0:
448,192,120803,1,0,0:0:0:0:
320,192,120965,1,8,0:0:0:0:
64,192,121127,1,0,0:0:0:0:
448,192,121289,1,0,0:0:0:0:
320,192,121451,1,0,0:0:0:0:
192,192,121613,1,8,0:0:0:0:
64,192,121776,1,0,0:0:0:0:
192,192,121938,1,0,0:0:0:0:
320,192,122100,1,0,0:0:0:0:
448,192,122262,1,8,0:0:0:0:
64,192,122424,1,0,0:0:0:0:
320,192,122586,1,0,0:0:0:0:
192,192,122586,128,0,123073:0:0:0:0:
64,192,122911,1,8,0:0:0:0:
448,192,123073,1,0,0:0:0:0:
320,192,123478,1,0,0:0:0:0:
192,192,123559,1,8,0:0:0:0:
64,192,123722,1,0,0:0:0:0:
320,192,123884,1,0,0:0:0:0:
448,192,123884,1,0,0:0:0:0:
192,192,124127,1,0,0:0:0:0:
64,192,124208,1,8,0:0:0:0:
448,192,124370,1,0,0:0:0:0:
320,192,124532,1,0,0:0:0:0:
64,192,124695,1,0,0:0:0:0:
192,192,124776,1,0,0:0:0:0:
320,192,124857,1,8,0:0:0:0:
448,192,125019,1,0,0:0:0:0:
64,192,125181,128,0,127613:0:0:0:0:
320,192,125181,128,0,127613:0:0:0:0:
